Enable / Włącz Javascript
 Widok 
 Kategorie 
 Nitro Torrent w sieci 
 Top 10 użytkowników 
 Dobry dinozaur 3D - The Good Dinosaur *2015* [PLSUBBED.mini-HD.1080p.3D.Half.Over-Under.AC3.BluRay.x264-SONDA] [ENG] [AT-TEAM]

Dobry dinozaur 3D - The Good Dinosaur *2015* [PLSUBBED.mini-HD.1080p.3D.Half.Over-Under.AC3.BluRay.x264-SONDA] [ENG] [AT-TEAM]
Kategoria: » » »
Dodane: 03/10/2017
Rozmiar: 3.90 GB
Uploader: ferrisbuellerquotes.com❱ Wędrowiec
seed(ów): 0
leecher(ów): 0
Pobrane: 5
Komentarzy: 0
Pobierz Torrent Pobierz Torrent
Pobierz [Magnet] Pobierz [Magnet]

Obserwuj
Raportuj


Film w wersji 3D Over-Under.
Do odtworzenia filmu WYMAGANY odpowiedni sprzęt (TV 3D)
===========================================
UWAGA: Napisy na stałe wtopione w film. Zapraszam Wszystkich chętnych !!!!!!!
=====================================================

Kopia mini-HD 1080p = 3,90 GB

gatunek: Animacja,Familijny,Komedia
produkcja: USA
premiera: 27 listopada 2015 (Polska) 14 listopada 2015 (świat)
reżyseria: Peter Sohn
scenariusz: Meg LeFauve

http://www.imdb.com/title/tt1979388/

Obsada:

Jeffrey Wright ... Poppa (głos)
Frances McDormand ... Momma (głos)
Maleah Nipay-Padilla ... Młoda Libby (głos)
Ryan Teeple ... Młody Buck (głos)
Jack McGraw ... Młody Arlo (głos)
Marcus Scribner ... Buck (głos)
Raymond Ochoa ... Arlo (głos)
Jack Bright ... Spot (głos)

Opis:

Co by było, gdyby asteroida, której potężne uderzenie miliony lat temu doprowadziło do zagłady dinozaurów, jednak nie uderzyła w Ziemię? W alternatywnej historii, w której dinozaury nie wymarły, młody Apatozaur Arlo wpada do rzeki i zostaje porwany przez jej nurt. Starając się znaleźć drogę powrotną do domu, zaprzyjaźnia się z małym jaskiniowcem o imieniu Bąbel.

Storyline:

"The Good Dinosaur" asks the question: What if the asteroid that forever changed life on Earth missed the planet completely and giant dinosaurs never became extinct? In this epic journey into the world of dinosaurs, an Apatosaurus named Arlo makes an unlikely human friend. While traveling through a harsh and mysterious landscape, Arlo learns the power of confronting his fears and discovers what he is truly capable of.

Screenshot:







General
Format                                   : Matroska
Format version                           : Version 2
File size                                : 3.90 GiB
Duration                                 : 1h 33mn
Overall bit rate                         : 5 968 Kbps
Movie name                               : The.Good.Dinosaur.3D.PLSUBBED.H-OU.BDRip.miniHD.1080p Rip by Sonda [AT-Team]
Encoded date                             : UTC 2016-02-11 13:51:52
Writing application                      : mkvmerge v5.7.0 ('The Whirlwind') built on Jul  8 2012 20:08:51
Writing library                          : libebml v1.2.3 + libmatroska v1.3.0

Video
ID                                       : 1
Format                                   : AVC
Format/Info                              : Advanced Video Codec
Format profile                           : High@L4.1
Format settings, CABAC                   : Yes
Format settings, ReFrames                : 4 frames
Codec ID                                 : V_MPEG4/ISO/AVC
Duration                                 : 1h 33mn
Bit rate                                 : 5 520 Kbps
Width                                    : 1 920 pixels
Height                                   : 1 080 pixels
Display aspect ratio                     : 16:9 (2.39:1)
Frame rate mode                          : Constant
Frame rate                               : 23.976 fps
Color space                              : YUV
Chroma subsampling                       : 4:2:0
Bit depth                                : 8 bits
Scan type                                : Progressive
Bits/(Pixel*Frame)                       : 0.111
Stream size                              : 3.53 GiB (91%)
Title                                    : PLSUBBED Rip by Sonda
Writing library                          : x264 core 148 r2638 7599210
Encoding settings                        : cabac=1 / ref=4 / deblock=1:-1:-1 / rc=2pass
Default                                  : Yes
Forced                                   : No

Audio
ID                                       : 2
Format                                   : AC-3
Format/Info                              : Audio Coding 3
Mode extension                           : CM (complete main)
Format settings, Endianness              : Big
Codec ID                                 : A_AC3
Duration                                 : 1h 33mn
Bit rate mode                            : Constant
Bit rate                                 : 448 Kbps
Channel count                            : 6 channels
Channel positions                        : Front: L C R, Side: L R, LFE
Sampling rate                            : 48.0 KHz
Bit depth                                : 16 bits
Compression mode                         : Lossy
Stream size                              : 300 MiB (8%)
Title                                    : AC3 5.1
Language                                 : English
Default                                  : Yes
Forced                                   : No

Source:
A/V-The.Good.Dinosaur.2015.1080p.3D.BluRay.AVC.DTS-HD.MA.7.1-RARBG
Thanks - Sonda

.:: Sonda ::.


Dostępne napisy
Brak napisów
Szczegóły torrenta
Tracker http://tracker.torrenty.org:6969/announce
Multitracker [ Pokaż ]
Kategoria: » » » [Zgłoś błąd]
Dodane 03-10-2017
Podziękowali:
0 użytkowników 
Podziękuj!
Pokaż / Ukryj pliki:
Nazwa pliku Rozmiar
AT-TEAM/Upload by Sonda [AT-TEAM].jpg 45.62 KB
AT-TEAM/Read iNFO.txt 2.07 KB
AT-TEAM/Ale Torrenty Team enjoy !.url 0.11 KB
info/Torrent downloaded from sonda torrents at Free-Torrents.pl.txt 0.52 KB
info/Torrent downloaded from sonda torrents at aletorrenty.pl.txt 0.38 KB
info/Torrent downloaded from Sonda torrents at BTS.to.txt 0.11 KB
info/Torrent downloaded from Sonda torrents at AhaShare.com.txt 0.06 KB
info/Torrent downloaded from sonda000 torrents at demonoid.ph.txt 0.02 KB
The.Good.Dinosaur.3D.2015.PLSUBBED.H-OU.BDRip.miniHD.1080p(Sonda).mkv 3.90 GB
The Good Dinosaur.jpg 295.37 KB
10 plików
Brak komentarzy...