Enable / Włącz Javascript
 Widok 
 Kategorie 
 Nitro Torrent w sieci 
 Top 10 użytkowników 
 Einsatzgruppen - brygady śmierci (KOMPLET) [480p.NF.WEB-DL.H.264.AAC2.0] [Napisy PL]

Einsatzgruppen - brygady śmierci (KOMPLET) [480p.NF.WEB-DL.H.264.AAC2.0] [Napisy PL] wielopaczka
Kategoria: » » » »
Dodane: 16/03/2018
Rozmiar: 4.43 GB
Uploader: Lukarusi (1)
seed(ów): 31
leecher(ów): 12
Pobrane: 96
Komentarzy: 1
Pobierz Torrent Pobierz Torrent
Pobierz [Magnet] Pobierz [Magnet]

Obserwuj
Raportuj
Info

produkcja: Francja
gatunek: Dokument, Historia
czas trwania: ok. 42-48 min.

Opis

Serial dokumentalny o historii Einsatzgruppen, nazistowskich oddziałach odpowiedzialnych za masowe morderstwa Żydów, Romów oraz sowieckich jeńców w Europie Wschodniej.

Dane Techniczne

Format : Matroska
Format version : Version 4 / Version 2
File size : 1.26 GiB
Duration : 45 min 34 s
Overall bit rate : 3 951 kb/s
Encoded date : UTC 2018-03-16 19:14:41

Video
ID : 1
Format : AVC
Format/Info : Advanced Video Codec
Format profile : Main@L3
Format settings, CABAC : Yes
Format settings, RefFrames : 2 frames
Format settings, GOP : M=1, N=25
Codec ID : V_MPEG4/ISO/AVC
Duration : 45 min 34 s
Bit rate : 3 854 kb/s
Width : 720 pixels
Height : 480 pixels
Display aspect ratio : 16:9
Frame rate mode : Constant
Frame rate : 25.000 FPS
Color space : YUV
Chroma subsampling : 4:2:0
Bit depth : 8 bits
Scan type : Progressive
Bits/(Pixel*Frame) : 0.446
Stream size : 1.23 GiB (98%)
Default : Yes
Forced : Yes

Audio
ID : 2
Format : AAC
Format/Info : Advanced Audio Codec
Format profile : HE-AAC / LC
Codec ID : A_AAC
Duration : 45 min 34 s
Bit rate : 96.0 kb/s
Channel(s) : 2 channels
Channel positions : Front: L R
Sampling rate : 48.0 kHz / 24.0 kHz
Frame rate : 23.438 FPS (1024 SPF)
Compression mode : Lossy
Stream size : 30.9 MiB (2%)
Language : English
Default : Yes
Forced : Yes

Text
ID : 3
Format : UTF-8
Codec ID : S_TEXT/UTF8
Codec ID/Info : UTF-8 Plain Text
Duration : 42 min 59 s
Bit rate : 84 b/s
Count of elements : 585
Stream size : 26.6 KiB (0%)
Language : Polish
Default : Yes
Forced : Yes
Dostępne napisy
Brak napisów
Szczegóły torrenta
Tracker http://tracker.vanitycore.co:6969/announce
Multitracker [ Pokaż ]
Kategoria: » » » » [Zgłoś błąd]
Dodane 16-03-2018
Podziękowali:
1 użytkownik 
[ Pokaż ]
Podziękuj!
Pokaż / Ukryj pliki:
Nazwa pliku Rozmiar
Einsatzgruppen - brygady śmierci odc. 1 [480p.NF.WEB-DL.H.264.AAC2.0] [Napisy PL].mkv 1.26 GB
Einsatzgruppen - brygady śmierci odc. 1 [480p.NF.WEB-DL.H.264.AAC2.0] [Napisy PL].srt 49.33 KB
Einsatzgruppen - brygady śmierci odc. 2 [480p.NF.WEB-DL.H.264.AAC2.0] [Napisy PL].mkv 1.03 GB
Einsatzgruppen - brygady śmierci odc. 2 [480p.NF.WEB-DL.H.264.AAC2.0] [Napisy PL].srt 52.85 KB
Einsatzgruppen - brygady śmierci odc. 3 [480p.NF.WEB-DL.H.264.AAC2.0] [Napisy PL].mkv 966.51 MB
Einsatzgruppen - brygady śmierci odc. 3 [480p.NF.WEB-DL.H.264.AAC2.0] [Napisy PL].srt 41.67 KB
Einsatzgruppen - brygady śmierci odc. 4 [480p.NF.WEB-DL.H.264.AAC2.0] [Napisy PL].mkv 1.20 GB
Einsatzgruppen - brygady śmierci odc. 4 [480p.NF.WEB-DL.H.264.AAC2.0] [Napisy PL].srt 47.62 KB
8 plików

<< Poprz.      Następna >>
1 - 1



asmus2233 (1)
masz może z lektorem
17/03/2018 08:02:59 # 0 0

1 - 1
<< Poprz.      Następna >>