Enable / Włącz Javascript
 Widok 
 Kategorie 
 Nitro Torrent w sieci 
 Top 10 użytkowników 
 Mune-Mune, le gardien de la lune 3D (2014)[BRRip 1080p x264 by alE13 AC3DTS] [Napisy PLENG] [ENG]

Mune-Mune, le gardien de la lune 3D (2014)[BRRip 1080p x264 by alE13 AC3DTS] [Napisy PLENG] [ENG]
Kategoria: » » »
Dodane: 03/10/2017
Rozmiar: 6.34 GB
Uploader: ferrisbuellerquotes.com❱ Wędrowiec
seed(ów): 0
leecher(ów): 0
Pobrane: 4
Komentarzy: 0
Pobierz Torrent Pobierz Torrent
Pobierz [Magnet] Pobierz [Magnet]

Obserwuj
Raportuj


Film w wersji 3D - Half OVER/UNDER

http://www.filmweb.pl/film/Mune-2014-728928
http://www.imdb.com/title/tt/

reżyseria: Alexandre HeboyanBenoît Philippon
scenariusz: Jérôme Fansten, Benoît Philippon
gatunek: Animacja
produkcja: Francja
premiera: 06-12-2014
muzyka:         Bruno Coulais
czas:           1h 25mn

opis:

When a faun named Mune becomes the Guardian of the Moon, little did he had unprepared experience
with the Moon and an accident that could put both the Moon and the Sun in danger, including a corrupt
titan named Necross who wants the Sun for himself and placing the balance of night and day in great
peril. Now with the help of a wax-child named Glim and the warrior, Sohone who also became
the Sun Guardian, they go out on an exciting journey to get the Sun back and restore the Moon to their
rightful place in the sky.

Faun zostaje strażnikiem Księżyca. Jego niedoświadczenie ściąga niebezpieczeństwo na tego, którego
ma chronić oraz Słońce.






obsada:

Omar Sy, Iz?a Higelin, Michaël Grégorio (voice)

dane techniczne:

Mune, le gardien de la lune 3D (2015)-alE13.mkv
Format                      : Matroska
Format version              : Version 4 / Version 2
File size                   : 6.25 GiB
Duration                    : 1h 25mn
Overall bit rate            : 10.4 Mbps
Movie name                  : Mune, le gardien de la lune 3D (2015)-alE13
Encoded date                : UTC 2016-07-17 03:23:23
Writing application         : mkvmerge v8.1.0 ('Psychedelic Postcard') 64bit
Writing library             : libebml v1.3.1 + libmatroska v1.4.2
Cover                       : Yes
Attachments                 : cover.jpg

Video
ID                          : 1
Format                      : AVC
Format/Info                 : Advanced Video Codec
Format profile              : High@L4.1
Format settings, CABAC      : Yes
Format settings, ReFrames   : 2 frames
Codec ID                    : V_MPEG4/ISO/AVC
Duration                    : 1h 25mn
Bit rate                    : 8 158 Kbps
Width                       : 1 920 pixels
Height                      : 804 pixels
Display aspect ratio        : 2.40:1
Frame rate mode             : Constant
Frame rate                  : 23.976 (24000/1001) fps
Color space                 : YUV
Chroma subsampling          : 4:2:0
Bit depth                   : 8 bits
Scan type                   : Progressive
Bits/(Pixel*Frame)          : 0.220
Stream size                 : 4.89 GiB (78%)
Title                       : Mune, le gardien de la lune 3D (2015)-alE13
Writing library             : x264 core
Default                     : Yes
Forced                      : No
Color range                 : Limited
Color primaries             : BT.709
Transfer characteristics    : BT.709
Matrix coefficients         : BT.709

Audio #1
ID                          : 2
Format                      : AC-3
Format/Info                 : Audio Coding 3
Mode extension              : CM (complete main)
Format settings, Endianness : Big
Codec ID                    : A_AC3
Duration                    : 1h 25mn
Bit rate mode               : Constant
Bit rate                    : 448 Kbps
Channel(s)                  : 6 channels
Channel positions           : Front: L C R, Side: L R, LFE
Sampling rate               : 48.0 KHz
Frame rate                  : 31.250 fps (1536 spf)
Compression mode            : Lossy
Stream size                 : 275 MiB (4%)
Title                       : Mune, le gardien de la lune 3D (2015)-alE13_AC3
Default                     : Yes
Forced                      : No

Audio #2
ID                          : 3
Format                      : DTS
Format/Info                 : Digital Theater Systems
Format profile              : MA / Core
Mode                        : 16
Format settings, Endianness : Big
Codec ID                    : A_DTS
Duration                    : 1h 25mn
Bit rate mode               : Variable / Constant
Bit rate                    : 1 795 Kbps / 1 152 Kbps
Channel(s)                  : 6 channels
Channel positions           : Front: L C R, Side: L R, LFE
Sampling rate               : 48.0 KHz
Frame rate                  : 93.750 fps (512 spf)
Bit depth                   : 16 bits
Compression mode            : Lossless / Lossy
Stream size                 : 1.08 GiB (17%)
Title                       : Mune, le gardien de la lune 3D (2015)-alE13_DTS
Language                    : French
Default                     : No
Forced                      : No

Text #1
ID                          : 4
Format                      : VobSub
Muxing mode                 : zlib
Codec ID                    : S_VOBSUB
Codec ID/Info               : Picture based subtitle format used on DVDs
Duration                    : 1h 19mn
Bit rate                    : 6 096 bps
Count of elements           : 617
Stream size                 : 3.48 MiB (0%)
Title                       : Mune, le gardien de la lune 3D (2015)-alE13
Language                    : Polish
Default                     : Yes
Forced                      : No

Text #2
ID                          : 5
Format                      : VobSub
Muxing mode                 : zlib
Codec ID                    : S_VOBSUB
Codec ID/Info               : Picture based subtitle format used on DVDs
Duration                    : 1h 19mn
Bit rate                    : 7 880 bps
Count of elements           : 1400
Stream size                 : 4.48 MiB (0%)
Title                       : Mune, le gardien de la lune 3D (2015)-alE13
Language                    : English
Default                     : No
Forced                      : No

Menu
00:00:00.000                : en:(01)00:00:00:000
00:06:17.752                : en:(02)00:06:17:752
00:13:55.208                : en:(03)00:13:55:208
00:19:02.015                : en:(04)00:19:02:015
00:26:12.069                : en:(05)00:26:12:069
00:34:47.751                : en:(06)00:34:47:751
00:42:15.907                : en:(07)00:42:15:907
00:51:53.777                : en:(08)00:51:53:777
01:01:02.492                : en:(09)01:01:02:492
01:09:13.858                : en:(10)01:09:13:858
01:14:02.938                : en:(11)01:14:02:938
01:18:38.671                : en:(12)01:18:38:671



Dostępne napisy
Brak napisów
Szczegóły torrenta
Tracker http://tracker.aletorrenty.pl:2710/announce
Multitracker [ Pokaż ]
Kategoria: » » » [Zgłoś błąd]
Dodane 03-10-2017
Podziękowali:
0 użytkowników 
Podziękuj!
Pokaż / Ukryj pliki:
Nazwa pliku Rozmiar
info/Nostalgie.jpg 138.36 KB
info/Torrent downloaded from alE13 torrents at BTScene.org.txt 0.12 KB
info/Torrent downloaded from demonoid.pw.txt 0.04 KB
info/Torrent downloaded from - www.aletorrenty.pl 0.04 KB
subtitles/Mune, le gardien de la lune 3D (2015)-alE13.rar 5.50 MB
Mune, le gardien de la lune 3D (2015)-alE13.mkv 6.25 GB
sample.mkv 84.35 MB
cover.jpg 430.47 KB
txt.jpg 147.68 KB
poster.jpg 62.25 KB
10 plików
Brak komentarzy...