Enable / Włącz Javascript
 Widok 
 Kategorie 
 Nitro Torrent w sieci 
 Top 10 użytkowników 
 Powrót do Parku Jurajskiego 3D - Back to the Jurassic *2015* [PL.SUBBED.mini-HD.1080p.3D.Half.Side-by-Side.AC3.BluRay.x264-SONDA] [ENG] [AT-TEAM]

Powrót do Parku Jurajskiego 3D - Back to the Jurassic *2015* [PL.SUBBED.mini-HD.1080p.3D.Half.Side-by-Side.AC3.BluRay.x264-SONDA] [ENG] [AT-TEAM]
Kategoria: » » »
Dodane: 03/10/2017
Rozmiar: 3.97 GB
Uploader: ferrisbuellerquotes.com❱ Wędrowiec
seed(ów): 0
leecher(ów): 0
Pobrane: 21
Komentarzy: 0
Pobierz Torrent Pobierz Torrent
Pobierz [Magnet] Pobierz [Magnet]

Obserwuj
Raportuj


Film w wersji 3D Side-by-Side.
Do odtworzenia filmu WYMAGANY odpowiedni sprzęt (TV 3D)
===========================================
UWAGA: Napisy na stałe wtopione w film. Zapraszam Wszystkich chętnych !!!!!!!
=====================================================

Kopia mini-HD 1080p = 3,97 GB

produkcja: USA
muzyka: Linsdey Fellows
gatunek: animacja, familijny
reżyserja: Yoon S.Choi, John Kafka
scenariusz: Adam Beechen

http://www.imdb.com/title/tt4693418/

Obsada:

Melanie Griffith ... Tyra
Jane Lynch ... Sue
William Baldwin ... Sarco
Stephen Baldwin ... Surly
Rob Schneider ... Dodger
Pamela Adlon ... Ernie

Storyline:

Ernie, Julia, and Max accidentally start a time-machine and find themselves back in time 65 million years, where they are adopted by a doting dinosaur mom and a rambunctious dinosaur brother while, back in the present day, their parents plot their rescue.

Opis:

Ernie, Julka i ich kolega Max przez przypadek przenoszą się w epokę dinozaurów na ratunek wyruszają: matka Erniego i Julki, oraz ojciec Maxa.

Screenshot:




[Oryginalny obrazek]


General
Format                                   : Matroska
Format version                           : Version 2
File size                                : 3.97 GiB
Duration                                 : 1h 25mn
Overall bit rate                         : 6 626 Kbps
Movie name                               : Back.To.The.Jurassic_3D.Bluray3D Rip by Sonda [AT-Team]
Encoded date                             : UTC 2015-07-31 13:37:58
Writing application                      : mkvmerge v5.7.0 ('The Whirlwind') built on Jul  8 2012 20:08:51
Writing library                          : libebml v1.2.3 + libmatroska v1.3.0

Video
ID                                       : 1
Format                                   : AVC
Format/Info                              : Advanced Video Codec
Format profile                           : High@L4.1
Format settings, CABAC                   : Yes
Format settings, ReFrames                : 2 frames
Codec ID                                 : V_MPEG4/ISO/AVC
Duration                                 : 1h 25mn
Bit rate                                 : 5 854 Kbps
Width                                    : 1 920 pixels
Height                                   : 1 080 pixels
Display aspect ratio                     : 1.85:1
Frame rate mode                          : Constant
Frame rate                               : 23.976 fps
Color space                              : YUV
Chroma subsampling                       : 4:2:0
Bit depth                                : 8 bits
Scan type                                : Progressive
Bits/(Pixel*Frame)                       : 0.118
Stream size                              : 3.51 GiB (88%)
Title                                    : Rip by Sonda subbedPL
Writing library                          : x264 core
Default                                  : Yes
Forced                                   : No
Color primaries                          : BT.709
Transfer characteristics                 : BT.709
Matrix coefficients                      : BT.709

Audio
ID                                       : 2
Format                                   : AC-3
Format/Info                              : Audio Coding 3
Mode extension                           : CM (complete main)
Format settings, Endianness              : Big
Codec ID                                 : A_AC3
Duration                                 : 1h 25mn
Bit rate mode                            : Constant
Bit rate                                 : 640 Kbps
Channel(s)                               : 6 channels
Channel positions                        : Front: L C R, Side: L R, LFE
Sampling rate                            : 48.0 KHz
Bit depth                                : 16 bits
Compression mode                         : Lossy
Stream size                              : 393 MiB (10%)
Title                                    : AC3 5.1 ENG
Language                                 : English
Default                                  : Yes
Forced                                   : No

Menu
00:00:00.000                             : en:(01)00:00:00:000
00:06:26.511                             : en:(02)00:06:26:511
00:14:36.875                             : en:(03)00:14:36:875
00:21:41.548                             : en:(04)00:21:41:548
00:27:53.461                             : en:(05)00:27:53:461
00:36:42.032                             : en:(06)00:36:42:032
00:42:59.242                             : en:(07)00:42:59:242
00:49:29.800                             : en:(08)00:49:29:800
00:53:37.172                             : en:(09)00:53:37:172
01:02:45.594                             : en:(10)01:02:45:594
01:11:19.858                             : en:(11)01:11:19:858
01:19:10.996                             : en:(12)01:19:10:996

Source:
A/V-Back to the Jurassic 2015 1080p 3D Blu-ray AVC DD 5 1-o0o


.:: Sonda ::.


Dostępne napisy
Brak napisów
Szczegóły torrenta
Tracker http://tracker.aletorrenty.pl:2710/announce
Multitracker [ Pokaż ]
Kategoria: » » » [Zgłoś błąd]
Dodane 03-10-2017
Podziękowali:
0 użytkowników 
Podziękuj!
Pokaż / Ukryj pliki:
Nazwa pliku Rozmiar
info/Torrent downloaded from sonda torrents at Free-Torrents.pl.txt 0.52 KB
info/Torrent downloaded from sonda torrents at aletorrenty.pl.txt 0.38 KB
info/Torrent downloaded from Sonda torrents at BTS.to.txt 0.11 KB
info/Torrent downloaded from Sonda torrents at AhaShare.com.txt 0.06 KB
info/Torrent downloaded from sonda000 torrents at demonoid.ph.txt 0.02 KB
Back.To.The.Jurassic_3D.2015.miniHD.1080p.subbedPL(Sonda).mkv 3.97 GB
71bDog1KfEL._SL1024_.jpg 208.34 KB
Upload by Sonda [AT-TEAM].jpg 45.62 KB
Read iNFO.txt 2.07 KB
Ale Torrenty Team enjoy !.url 0.11 KB
10 plików
Brak komentarzy...