Enable / Włącz Javascript
 Widok 
 Kategorie 
 Nitro Torrent w sieci 
 Top 10 użytkowników 
 Pudłaki 3D(OU) - The Boxtrolls *2014* [1080p.Half.Over-Under.DTS 5.1.AC3.BluRay.x264-SONDA] [Napisy PL]

Pudłaki 3D(OU) - The Boxtrolls *2014* [1080p.Half.Over-Under.DTS 5.1.AC3.BluRay.x264-SONDA] [Napisy PL]
Kategoria: » » »
Dodane: 03/10/2017
Rozmiar: 7.34 GB
Uploader: ferrisbuellerquotes.com❱ Wędrowiec
seed(ów): 0
leecher(ów): 0
Pobrane: 7
Komentarzy: 0
Pobierz Torrent Pobierz Torrent
Pobierz [Magnet] Pobierz [Magnet]

Obserwuj
Raportuj
Film w wersji 3D Over-Under
Do odtworzenia filmu WYMAGANY odpowiedni sprzęt (TV 3D).
==========================================
UWAGA: Napisy na stałe wtopione w film. Zapraszam Wszystkich chętnych !!!!!!
=====================================================


[Oryginalny obrazek]



gatunek: Animacja,Familijny,Przygodowy
produkcja: USA
premiera: 10 października 2014 (Polska) 31 sierpnia 2014 (świat)
reżyseria: Anthony Stacchi,Graham Annable
scenariusz: Irena Brignull,Adam Pava


http://www.imdb.com/title/tt0787474/
http://www.filmweb.pl/film?id=318862


Obsada:

Ben Kingsley ... Archibald Snatcher (głos)
Isaac Hempstead-Wright ... Eggs (głos)
Elle Fanning ... Winnie (głos)
Tracy Morgan ... Pan Gristle (głos)
Richard Ayoade ... Pan Pickles (głos)
Nick Frost ... Pan Trout (głos)
Jared Harris ... Lord Portley-Rind (głos)
Toni Collette ...Lady Portley-Rind (głos)

Opis:

Pudłaki to urocze psotne świrusy, które uwielbiają zabawę i mają dobre serca. Wiodą spokojne radosne życie w zbudowanych pod ulicami miasteczka Cheesebridge podziemiach, a ubierają się w pozostawione do recyklingu pudełka, które noszą jak żółwie swoje skorupy. Są przyjazne i zupełnie niepodobne do nadętych wytwornych mieszkańców wiktoriańskiego Cheesebridge, których obsesją jest bogactwo, pozycja klasowa i uchodzące za szczyt luksusu najbardziej śmierdzące na świecie sery. Starając się trzymać razem w swoim podziemnym świecie, Pudłaki zajmują się tym, co najbardziej lubią i najlepiej potrafią - zbieraniem odpadków po ludziach. Przerabiają je potem na fantastyczne, magiczne wynalazki. Ich działania nie znajdują jednak zrozumienia w świecie ludzi, szczególnie w kontekście nieprawdziwych opowieści rozsiewanych na ich temat.

Screeny:

[Oryginalny obrazek]

[Oryginalny obrazek]

[Oryginalny obrazek]

[Oryginalny obrazek]




General
Format                                   : Matroska
Format version                           : Version 2
File size                                : 7.34 GiB
Duration                                 : 1h 36mn
Overall bit rate mode                    : Variable
Overall bit rate                         : 10.9 Mbps
Movie name                               : The.Boxtrolls.2014.1080p.3D.subbedPL.Bluray3D Rip by Sonda [AT-Team]
Encoded date                             : UTC 2015-01-02 12:34:26
Writing application                      : mkvmerge v5.7.0 ('The Whirlwind') built on Jul  8 2012 20:08:51
Writing library                          : libebml v1.2.3 + libmatroska v1.3.0

Video
ID                                       : 1
Format                                   : AVC
Format/Info                              : Advanced Video Codec
Format profile                           : High@L4.1
Format settings, CABAC                   : Yes
Format settings, ReFrames                : 2 frames
Codec ID                                 : V_MPEG4/ISO/AVC
Duration                                 : 1h 36mn
Bit rate mode                            : Variable
Bit rate                                 : 8 568 Kbps
Maximum bit rate                         : 13.2 Mbps
Width                                    : 1 920 pixels
Height                                   : 1 080 pixels
Display aspect ratio                     : 1.85:1
Frame rate mode                          : Constant
Frame rate                               : 23.976 fps
Color space                              : YUV
Chroma subsampling                       : 4:2:0
Bit depth                                : 8 bits
Scan type                                : Progressive
Bits/(Pixel*Frame)                       : 0.172
Stream size                              : 5.76 GiB (78%)
Title                                    : Rip by Sonda subbedPL
Default                                  : Yes
Forced                                   : No

Audio #1
ID                                       : 2
Format                                   : AC-3
Format/Info                              : Audio Coding 3
Mode extension                           : CM (complete main)
Format settings, Endianness              : Big
Codec ID                                 : A_AC3
Duration                                 : 1h 36mn
Bit rate mode                            : Constant
Bit rate                                 : 640 Kbps
Channel(s)                               : 6 channels
Channel positions                        : Front: L C R, Side: L R, LFE
Sampling rate                            : 48.0 KHz
Bit depth                                : 16 bits
Compression mode                         : Lossy
Stream size                              : 440 MiB (6%)
Title                                    : AC3 5.1
Language                                 : English
Default                                  : Yes
Forced                                   : Yes

Audio #2
ID                                       : 3
Format                                   : DTS
Format/Info                              : Digital Theater Systems
Mode                                     : 16
Format settings, Endianness              : Big
Codec ID                                 : A_DTS
Duration                                 : 1h 36mn
Bit rate mode                            : Constant
Bit rate                                 : 1 509 Kbps
Channel(s)                               : 6 channels
Channel positions                        : Front: L C R, Side: L R, LFE
Sampling rate                            : 48.0 KHz
Bit depth                                : 24 bits
Compression mode                         : Lossy
Stream size                              : 1.01 GiB (14%)
Title                                    : DTS 5.1 Original
Language                                 : English
Default                                  : No
Forced                                   : No

Menu
00:00:00.000                             : en:(01)00:00:00:000
00:05:00.000                             : en:(02)00:05:00:000
00:10:00.000                             : en:(03)00:10:00:000
00:15:00.000                             : en:(04)00:15:00:000
00:20:00.000                             : en:(05)00:20:00:000
00:25:00.000                             : en:(06)00:25:00:000
00:30:00.000                             : en:(07)00:30:00:000
00:35:00.000                             : en:(08)00:35:00:000
00:40:00.000                             : en:(09)00:40:00:000
00:45:00.000                             : en:(10)00:45:00:000
00:50:00.000                             : en:(11)00:50:00:000
00:55:00.000                             : en:(12)00:55:00:000
01:00:00.000                             : en:(13)01:00:00:000
01:05:00.000                             : en:(14)01:05:00:000
01:10:00.000                             : en:(15)01:10:00:000
01:15:00.000                             : en:(16)01:15:00:000
01:20:00.000                             : en:(17)01:20:00:000
01:25:00.000                             : en:(18)01:25:00:000
01:30:00.000                             : en:(19)01:30:00:000
01:35:00.000                             : en:(20)01:35:00:000


Source:
A/V-The.Boxtrolls.2014.1080p.3D.BluRay.AVC.DTS-HD.MA.5.1






Dostępne napisy
Brak napisów
Szczegóły torrenta
Tracker http://tracker.aletorrenty.pl:2710/announce
Multitracker [ Pokaż ]
Kategoria: » » » [Zgłoś błąd]
Dodane 03-10-2017
Podziękowali:
0 użytkowników 
Podziękuj!
Pokaż / Ukryj pliki:
Nazwa pliku Rozmiar
info/Torrent downloaded from -sonda torrents at torrentgarden.com.txt 0.36 KB
info/Torrent downloaded from Sonda torrents at BTS.to.txt 0.11 KB
info/Torrent Downloaded from sonda000 torrents at demonoid.ph.txt 0.02 KB
The.Boxtrolls.2014.1080p.3D.H-OU.subbedPL(Sonda).mkv 7.34 GB
114104_front.jpg 162.22 KB
Upload by Sonda [AT-TEAM].jpg 36.66 KB
Read iNFO.txt 2.07 KB
Ale Torrenty Team enjoy !.url 0.11 KB
8 plików
Brak komentarzy...