Enable / Włącz Javascript
 Widok 
 Kategorie 
 Nitro Torrent w sieci 
 Top 10 użytkowników 
 Rechotek 3D - Ribbit *2014* [PL.SUBBED.mini-HD.1080p.3D.Half.Over-Under.AC3.BluRay.x264-SONDA] [ENG] [AT-TEAM]

Rechotek 3D - Ribbit *2014* [PL.SUBBED.mini-HD.1080p.3D.Half.Over-Under.AC3.BluRay.x264-SONDA] [ENG] [AT-TEAM]
Kategoria: » » »
Dodane: 03/10/2017
Rozmiar: 3.98 GB
Uploader: ferrisbuellerquotes.com❱ Wędrowiec
seed(ów): 0
leecher(ów): 0
Pobrane: 16
Komentarzy: 0
Pobierz Torrent Pobierz Torrent
Pobierz [Magnet] Pobierz [Magnet]

Obserwuj
Raportuj


Film w wersji 3D Over-Under.
Do odtworzenia filmu WYMAGANY odpowiedni sprzęt (TV 3D)
===========================================
UWAGA: Napisy na stałe wtopione w film. Zapraszam Wszystkich chętnych !!!!!!!
=====================================================

Kopia mini-HD 1080p = 3,98 GB

gatunek: Animacja
produkcja: Malezja
premiera: 29 maja 2015 (Polska) 4 września 2014 (świat)
reżyseria: Chuck Powers
scenariusz: Amir Hafizi,Chuck Powers

http://www.imdb.com/title/tt2066048/
http://www.filmweb.pl/film?id=642130

Obsada:

Sean Astin ... Ribbit
Tim Curry ... Terence
Russell Peters ... Deepak
Cherami Leigh ... Sandy
Elza Irdalynna ... Luciano / Rafa

Storyline:

A fantastic journey sometimes begins with one tiny little hop. Ribbit is a frog with an identity crisis. Unlike frogs, he hates hopping and has a strong aversion to water. Feeling a misfit, he is full of questions about his life... and so together with his best friend, a flying squirrel, he embarks on a soul-searching journey in search of the truth and his rightful place in this world. Set amongst the breathtaking backdrop of the Amazon rainforest, they surge ahead in their quest for the answer to life's mysteries... encountering a zany variety of colourful characters, both friend and foe, along the way. Confusion reigns when Ribbit is accidently hypnotised. Is Ribbit a human prince trapped in a frog's body by an evil curse... or is he merely a confused colourful denizen of the jungle?  

Opis:

Pełna niezwykłych przygód i znakomitego humoru animowana opowieść o najbardziej kumatej żabce świata!

Wielka podróż czasem zaczyna się od żabiego skoku. Rechotek jest żabą, która przeżywa kryzys tożsamości ? nie lubi skakać i nie znosi niczego, co wiąże się z wodą. Wraz ze swoim najlepszym przyjacielem ? latającą wiewiórką ? wyrusza przez amazońską dżunglę w poszukiwaniu swego miejsca w życiu. Na swej drodze spotkają całą plejadę najbardziej barwnych zwierzątek, jakie można sobie wyobrazić. Kłopoty zaczną się, gdy Rechotek uwierzy, że jest zaklętym w żabę ludzkim księciem i za wszelką cenę postanowi znaleźć księżniczkę, która odczaruje go pocałunkiem. Tylko jak tu w dżungli znaleźć księżniczkę?

Screenshot:







General
Format                                   : Matroska
Format version                           : Version 2
File size                                : 3.98 GiB
Duration                                 : 1h 28mn
Overall bit rate                         : 6 427 Kbps
Movie name                               : RIBBIT_3D.Bluray3D Rip by Sonda [AT-Team]
Encoded date                             : UTC 2015-08-31 13:33:01
Writing application                      : mkvmerge v5.7.0 ('The Whirlwind') built on Jul  8 2012 20:08:51
Writing library                          : libebml v1.2.3 + libmatroska v1.3.0

Video
ID                                       : 1
Format                                   : AVC
Format/Info                              : Advanced Video Codec
Format profile                           : High@L4.1
Format settings, CABAC                   : Yes
Format settings, ReFrames                : 2 frames
Codec ID                                 : V_MPEG4/ISO/AVC
Duration                                 : 1h 28mn
Bit rate                                 : 5 659 Kbps
Width                                    : 1 920 pixels
Height                                   : 1 080 pixels
Display aspect ratio                     : 1.78:1
Frame rate mode                          : Constant
Frame rate                               : 23.976 fps
Color space                              : YUV
Chroma subsampling                       : 4:2:0
Bit depth                                : 8 bits
Scan type                                : Progressive
Bits/(Pixel*Frame)                       : 0.114
Stream size                              : 3.51 GiB (88%)
Title                                    : PL.SUBBED Rip by Sonda 2pass
Writing library                          : x264 core
Default                                  : Yes
Forced                                   : No
Color primaries                          : BT.709
Transfer characteristics                 : BT.709
Matrix coefficients                      : BT.709

Audio
ID                                       : 2
Format                                   : AC-3
Format/Info                              : Audio Coding 3
Mode extension                           : CM (complete main)
Format settings, Endianness              : Big
Codec ID                                 : A_AC3
Duration                                 : 1h 28mn
Bit rate mode                            : Constant
Bit rate                                 : 640 Kbps
Channel(s)                               : 6 channels
Channel positions                        : Front: L C R, Side: L R, LFE
Sampling rate                            : 48.0 KHz
Bit depth                                : 16 bits
Compression mode                         : Lossy
Stream size                              : 406 MiB (10%)
Title                                    : AC3 5.1 ENG
Language                                 : English
Default                                  : Yes
Forced                                   : No

Menu
00:00:00.000                             : en:(01)00:00:00:000
00:05:00.000                             : en:(02)00:05:00:000
00:10:00.000                             : en:(03)00:10:00:000
00:15:00.000                             : en:(04)00:15:00:000
00:20:00.000                             : en:(05)00:20:00:000
00:25:00.000                             : en:(06)00:25:00:000
00:30:00.000                             : en:(07)00:30:00:000
00:35:00.000                             : en:(08)00:35:00:000
00:40:00.000                             : en:(09)00:40:00:000
00:45:00.000                             : en:(10)00:45:00:000
00:50:00.000                             : en:(11)00:50:00:000
00:55:00.000                             : en:(12)00:55:00:000
01:00:00.000                             : en:(13)01:00:00:000
01:05:00.000                             : en:(14)01:05:00:000
01:10:00.000                             : en:(15)01:10:00:000
01:15:00.000                             : en:(16)01:15:00:000
01:20:00.000                             : en:(17)01:20:00:000
01:25:00.000                             : en:(18)01:25:00:000

Source:
A/V-BDRemux 2D/3D




.:: Sonda ::.


Dostępne napisy
Brak napisów
Szczegóły torrenta
Tracker http://tracker.aletorrenty.pl:2710/announce
Multitracker [ Pokaż ]
Kategoria: » » » [Zgłoś błąd]
Dodane 03-10-2017
Podziękowali:
0 użytkowników 
Podziękuj!
Pokaż / Ukryj pliki:
Nazwa pliku Rozmiar
AT-TEAM/Upload by Sonda [AT-TEAM].jpg 45.62 KB
AT-TEAM/Read iNFO.txt 2.07 KB
AT-TEAM/Ale Torrenty Team enjoy !.url 0.11 KB
info/Torrent downloaded from sonda torrents at Free-Torrents.pl.txt 0.52 KB
info/Torrent downloaded from sonda torrents at aletorrenty.pl.txt 0.38 KB
info/Torrent downloaded from Sonda torrents at BTS.to.txt 0.11 KB
info/Torrent downloaded from Sonda torrents at AhaShare.com.txt 0.06 KB
info/Torrent downloaded from sonda000 torrents at demonoid.ph.txt 0.02 KB
RIBBIT_3D.2014.H-OU.miniHD.1080p.subbedPL(Sonda).mkv 3.98 GB
4013549044004_high.jpg 249.83 KB
10 plików
Brak komentarzy...