Enable / Włącz Javascript
 Widok 
 Kategorie 
 Nitro Torrent w sieci 
 Top 10 użytkowników 
 Rio 2 3D (2014) [BDRip.x264 HOU.Audio AC3] [Napisy PLENG] [ENG]

Rio 2 3D (2014) [BDRip.x264 HOU.Audio AC3] [Napisy PLENG] [ENG]
Kategoria: » » »
Dodane: 03/10/2017
Rozmiar: 4.02 GB
Uploader: ferrisbuellerquotes.com❱ Wędrowiec
seed(ów): 0
leecher(ów): 0
Pobrane: 11
Komentarzy: 0
Pobierz Torrent Pobierz Torrent
Pobierz [Magnet] Pobierz [Magnet]

Obserwuj
Raportuj
[Oryginalny obrazek]
[Oryginalny obrazek]

http://www.filmweb.pl/film/Rio+2-2014-657675

http://www.imdb.com/title/tt2357291/

Fim w wersji 3D - Half Ower/Under.

gatunek: Animacja Komedia Przygodowy
produkcja: USA
premiera: 20-03-2014
reżyseria: Carlos Saldanha
scenariusz: Carlos Saldanha Jenny Bicks
muzyka:John Powell
zdjęcia: Renato Falco
czas: 01:41:11

opis:

It's a jungle out there for Blu, Jewel and their three kids after they're hurtled from Rio de Janeiro to the wilds of the Amazon. As Blu tries to fit in, he goes beak-to-beak with the vengeful Nigel, and meets his father-in-law.

Blu i Jewel razem z potomstwem postanawiają przeprowadzić się do Amazonii, by nauczyć dzieci jak powinny żyć prawdziwe ptaki.

[Oryginalny obrazek]
[Oryginalny obrazek]
[Oryginalny obrazek]
[Oryginalny obrazek]
[Oryginalny obrazek]
[Oryginalny obrazek]
[Oryginalny obrazek]
[Oryginalny obrazek]

obsada:

Jesse Eisenberg, Anne Hathaway, Jemaine Clement [voice]

dane techniczne:

Rio 2 3D (2014)-alE13.mkv
Format : Matroska
Format version : Version 4 / Version 2
File size : 4.01 GiB
Duration : 1h 41mn
Overall bit rate : 5 674 Kbps
Movie name : Rio 2 3D (2014)_Rip.-alE13
Encoded date : UTC 2014-07-01 20:29:53
Writing application : mkvmerge v6.9.1
Writing library : libebml v1.3.0 + libmatroska v1.4.1

Video
ID : 1
Format : AVC
Format/Info : Advanced Video Codec
Format profile : High@L4.0
Format settings, CABAC : Yes
Format settings, ReFrames : 2 frames
Format settings, GOP : M=1, N=12
Codec ID : V_MPEG4/ISO/AVC
Duration : 1h 41mn
Bit rate mode : Constant
Bit rate : 5 000 Kbps
Width : 1 920 pixels
Height : 1 080 pixels
Display aspect ratio : 16:9
Frame rate mode : Constant
Frame rate : 23.976 fps
Color space : YUV
Chroma subsampling : 4:2:0
Bit depth : 8 bits
Scan type : Progressive
Bits/(Pixel*Frame) : 0.101
Stream size : 3.48 GiB (87%)
Title : Rio 2 3D (2014)_Rip.-alE13
Language : English

Audio
ID : 2
Format : AC-3
Format/Info : Audio Coding 3
Mode extension : CM (complete main)
Format settings, Endianness : Big
Codec ID : A_AC3
Duration : 1h 41mn
Bit rate mode : Constant
Bit rate : 640 Kbps
Channel(s) : 6 channels
Channel positions : Front: L C R, Side: L R, LFE
Sampling rate : 44.1 KHz
Bit depth : 16 bits
Compression mode : Lossy
Stream size : 463 MiB (11%)
Title : Rio 2 3D (2014)-alE13_AC3 @ 640 Kbps
Language : English

Text #1
ID : 3
Format : VobSub
Muxing mode : zlib
Codec ID : S_VOBSUB
Codec ID/Info : The same subtitle format used on DVDs
Title : Rio 2 3D (2014)-alE13
Language : Polish

Text #2
ID : 4
Format : VobSub
Codec ID : S_VOBSUB
Codec ID/Info : The same subtitle format used on DVDs
Title : Rio 2 3D (2014)-alE13
Language : English

Menu
00:00:00.000 : en:00:00:00.000
00:03:10.816 : en:00:03:10.816
00:05:14.314 : en:00:05:14.314
00:08:49.362 : en:00:08:49.362
00:13:02.240 : en:00:13:02.240
00:17:36.305 : en:00:17:36.305
00:19:19.408 : en:00:19:19.408
00:22:30.349 : en:00:22:30.349
00:26:48.690 : en:00:26:48.690
00:29:00.155 : en:00:29:00.155
00:30:59.691 : en:00:30:59.691
00:33:46.566 : en:00:33:46.566
00:36:34.192 : en:00:36:34.192
00:39:20.233 : en:00:39:20.233
00:41:32.657 : en:00:41:32.657
00:45:05.119 : en:00:45:05.119
00:47:23.090 : en:00:47:23.090
00:49:58.162 : en:00:49:58.162
00:52:05.456 : en:00:52:05.456
00:55:38.919 : en:00:55:38.919
00:58:10.904 : en:00:58:10.904
01:02:11.394 : en:01:02:11.394
01:04:38.083 : en:01:04:38.083
01:07:03.937 : en:01:07:03.937
01:09:18.196 : en:01:09:18.196
01:10:21.342 : en:01:10:21.342
01:15:17.763 : en:01:15:17.763
01:17:00.157 : en:01:17:00.157
01:21:41.855 : en:01:21:41.855
01:25:24.619 : en:01:25:24.619
01:29:42.711 : en:01:29:42.711
01:32:27.959 : en:01:32:27.959



Dostępne napisy
Brak napisów
Szczegóły torrenta
Tracker http://tracker.aletorrenty.pl:2710/announce
Multitracker [ Pokaż ]
Kategoria: » » » [Zgłoś błąd]
Dodane 03-10-2017
Podziękowali:
0 użytkowników 
Podziękuj!
Pokaż / Ukryj pliki:
Nazwa pliku Rozmiar
info/2.jpg 776.70 KB
info/Nostalgie 01.jpg 184.25 KB
info/Torrent downloaded from alE13 torrents at BTScene.org.txt 0.12 KB
info/Torrent downloaded from demonoid.ph.txt 0.04 KB
subtitles/subtitles.rar 12.05 MB
Rio 2 3D (2014)-alE13.mkv 4.01 GB
TXT.jpg 183.73 KB
Poster.jpg 172.24 KB
8 plików
Brak komentarzy...