Enable / Włącz Javascript
 Widok 
 Kategorie 
 Nitro Torrent w sieci 
 Top 10 użytkowników 
 Siedmiu krasnoludków ratuje Śpiącą Królewnę 3D(OU) - Der 7bte Zwerg *2014* [mini-HD.1080p.Half.Over-Under.AC3.PLSUBBED.BluRay.x264-SONDA] [GER] [AT-TEAM]

Siedmiu krasnoludków ratuje Śpiącą Królewnę 3D(OU) - Der 7bte Zwerg *2014* [mini-HD.1080p.Half.Over-Under.AC3.PLSUBBED.BluRay.x264-SONDA] [GER] [AT-TEAM]
Kategoria: » » »
Dodane: 03/10/2017
Rozmiar: 3.96 GB
Uploader: ferrisbuellerquotes.com❱ Wędrowiec
seed(ów): 0
leecher(ów): 0
Pobrane: 14
Komentarzy: 0
Pobierz Torrent Pobierz Torrent
Pobierz [Magnet] Pobierz [Magnet]

Obserwuj
Raportuj


Film w wersji 3D Over-Under.
Do odtworzenia filmu WYMAGANY odpowiedni sprzęt (TV 3D)
=================================================
UWAGA: Napisy na stałe wtopione w film. Zapraszam Wszystkich chętnych !!!!!!!
=============================================================


Kopia mini-HD 1080p = 3,96GB


gatunek: Animacja,Dla dzieci,Przygodowy,Baśń
produkcja: Niemcy
premiera: 14 listopada 2014 (Polska) 21 sierpnia 2014 (świat)
reżyseria: Boris Aljinovic,Harald Siepermann
scenariusz: Harald Siepermann,Sven Unterwaldt Jr.Daniel Welbat,Douglas Welbat


http://www.imdb.com/title/tt2914892/
http://www.filmweb.pl/film?id=703047

Obsada:

Joshua Graham ... Bobo
Matt Gilbert ... Tschakko
Al Parrish ... Cloudy
Geoff May ... Sunny
Joe Marth ... Cooky

Storyline:

The evil witch Dellamorta cursed princess Rose when she was a baby. Before she turns 18, Rose will get stung in the finger by a sharp object and she and the whole castle will fall into a hundred year long sleep unless her true love would kiss her. The night before her birthday she sends her bf Jack to the 7 dwarfs, who live behind the 7 mountains to hide until after Rose has turned 18. Unfortunately he gets lost and captured by Dellamorta's dragon *censored* So at the party, Rose gets stung in the finger, and everyone falls into deep sleep. Everyone but the 7 dwarfs of course who will go on a journey to save Jack so he can save Rose.

Opis:

Krasnoludek Bobo przypadkowo wywołuje wielkie zamieszanie w Zamku Fantabularasa. Przez jego niezdarność księżniczka Róża wraz z całym dworem pada ofiarą klątwy złej wiedźmy i zapada w 100-letni sen. Zły czar zdjąć może tylko pocałunek prawdziwej miłości. Problem w tym, że ukochany księżniczki ? poczciwy kuchcik ? trafił do niewoli strasznego smoka. Krasnoludki, chcąc naprawić błąd Bobo, sprowadzić chłopca do zamku i pokonać klątwę, wyruszają z misją ratunkową. Czeka ich nie lada wyzwanie, bo legowisko smoka znajduje się nieopodal siedziby złej czarownicy Dellamorty, tej samej, która rzuciła czar na Różę i bardzo nie lubi nieproszonych gości.

Screenshot:








General
Format                      : Matroska
Format version              : Version 2
File size                   : 3.96 GiB
Duration                    : 1h 27mn
Overall bit rate mode       : Variable
Overall bit rate            : 6 454 Kbps
Movie name                  : Der_7bte_Zwerg_3D.H-OU.miniHD.1080p.subbedPL.Bluray3D Rip by Sonda [AT-Team]
Encoded date                : UTC 2015-03-13 14:46:03
Writing application         : mkvmerge v5.7.0 ('The Whirlwind') built on Jul  8 2012 20:08:51
Writing library             : libebml v1.2.3 + libmatroska v1.3.0

Video
ID                          : 1
Format                      : AVC
Format/Info                 : Advanced Video Codec
Format profile              : High@L4.1
Format settings, CABAC      : Yes
Format settings, ReFrames   : 2 frames
Codec ID                    : V_MPEG4/ISO/AVC
Duration                    : 1h 27mn
Bit rate mode               : Variable
Bit rate                    : 5 685 Kbps
Maximum bit rate            : 8 797 Kbps
Width                       : 1 920 pixels
Height                      : 1 080 pixels
Display aspect ratio        : 1.85:1
Frame rate mode             : Constant
Frame rate                  : 23.976 fps
Color space                 : YUV
Chroma subsampling          : 4:2:0
Bit depth                   : 8 bits
Scan type                   : Progressive
Bits/(Pixel*Frame)          : 0.114
Stream size                 : 3.49 GiB (88%)
Title                       : Rip by Sonda subbedPL
Default                     : Yes
Forced                      : No

Audio
ID                          : 2
Format                      : AC-3
Format/Info                 : Audio Coding 3
Mode extension              : CM (complete main)
Format settings, Endianness : Big
Codec ID                    : A_AC3
Duration                    : 1h 27mn
Bit rate mode               : Constant
Bit rate                    : 640 Kbps
Channel(s)                  : 6 channels
Channel positions           : Front: L C R, Side: L R, LFE
Sampling rate               : 48.0 KHz
Bit depth                   : 16 bits
Compression mode            : Lossy
Stream size                 : 402 MiB (10%)
Title                       : AC3 5.1 GER
Language                    : German
Default                     : Yes
Forced                      : No

Menu
00:00:00.000                : en:(01)00:00:00:000
00:05:00.000                : en:(02)00:05:00:000
00:10:00.000                : en:(03)00:10:00:000
00:15:00.000                : en:(04)00:15:00:000
00:20:00.000                : en:(05)00:20:00:000
00:25:00.000                : en:(06)00:25:00:000
00:30:00.000                : en:(07)00:30:00:000
00:35:00.000                : en:(08)00:35:00:000
00:40:00.000                : en:(09)00:40:00:000
00:45:00.000                : en:(10)00:45:00:000
00:50:00.000                : en:(11)00:50:00:000
00:55:00.000                : en:(12)00:55:00:000
01:00:00.000                : en:(13)01:00:00:000
01:05:00.000                : en:(14)01:05:00:000
01:10:00.000                : en:(15)01:10:00:000
01:15:00.000                : en:(16)01:15:00:000
01:20:00.000                : en:(17)01:20:00:000
01:25:00.000                : en:(18)01:25:00:000

Source:
A/V-Der 7bte Zwerg (2014) 2D,3D Blu-Ray 1080p










Dostępne napisy
Brak napisów
Szczegóły torrenta
Tracker http://tracker.aletorrenty.pl:2710/announce
Multitracker [ Pokaż ]
Kategoria: » » » [Zgłoś błąd]
Dodane 03-10-2017
Podziękowali:
0 użytkowników 
Podziękuj!
Pokaż / Ukryj pliki:
Nazwa pliku Rozmiar
info/Torrent downloaded from sonda torrents at aletorrenty.pl.txt 0.38 KB
info/Torrent downloaded from -sonda torrents at torrentgarden.com.txt 0.36 KB
info/Torrent downloaded from Sonda torrents at BTS.to.txt 0.11 KB
info/Torrent downloaded from sonda000 torrents at demonoid.ph.txt 0.02 KB
Der_7bte_Zwerg_3D.2014.H-OU.miniHD.1080p.subbedPL(Sonda).mkv 3.96 GB
der-7bte-zwerg-verlosung.jpg_scrhrgyysa.jpg 154.48 KB
Upload by Sonda [AT-TEAM].jpg 45.62 KB
Read iNFO.txt 2.07 KB
Ale Torrenty Team enjoy !.url 0.11 KB
9 plików
Brak komentarzy...