Enable / Włącz Javascript
 Widok 
 Kategorie 
 Nitro Torrent w sieci 
 Top 10 użytkowników 
 Sky Force 3D *2012* [PL.SUBBED.mini-HD.1080p.3D.Half.Over-Under.AC3.BluRay.x264-SONDA] [ENG] [AT-TEAM]

Sky Force 3D *2012* [PL.SUBBED.mini-HD.1080p.3D.Half.Over-Under.AC3.BluRay.x264-SONDA] [ENG] [AT-TEAM]
Kategoria: » » »
Dodane: 03/10/2017
Rozmiar: 3.97 GB
Uploader: ferrisbuellerquotes.com❱ Wędrowiec
seed(ów): 0
leecher(ów): 0
Pobrane: 3
Komentarzy: 0
Pobierz Torrent Pobierz Torrent
Pobierz [Magnet] Pobierz [Magnet]

Obserwuj
Raportuj
[Oryginalny obrazek]

Film w wersji 3D Over-Under.
Do odtworzenia filmu WYMAGANY odpowiedni sprzęt (TV 3D)
===========================================
UWAGA: Napisy na stałe wtopione w film. Zapraszam Wszystkich chętnych !!!!!!!
=====================================================

Kopia mini-HD 1080p = 3,97 GB

gatunek: Animacja
produkcja: Hongkong, USA
premiera: 22 kwietnia 2012 (świat)
reżyseria: Tony Tang
scenariusz: Tony Tang

http://www.imdb.com/title/tt2104985/
http://www.filmweb.pl/film?id=645631

Obsada:

John S. Flynn ... Capt. Hawk
Heather Gordon ... Sporter
Aaron Krebs ... Fred

Storyline:

Sky Force is the most elite emergency fighting team in the sky. After hot-shot team member Ace breaks ranks on a dangerous mission and it results in tragedy, he leaves Sky Force for a dreary job in cargo hauling. But Ace can't forget his former life or his friends at Sky Force. When his cruel boss puts his cargo co-workers in danger, Ace takes action. Knowing that he can't be a hero on his own, Ace overcomes his fears and calls on Sky Force to help save the day!

Opis:

Samolocik Tinny marzy, by zostać bohaterem, ale wśród przyjaciół nie cieszy się zbytnim poważaniem. Pewnego dnia, pomimo zakazu kapitana Bena, próbuje ratować ludzi z pożaru, narażając własne życie. Ratuje go kapitan, sam przy tym ginąc. Rozżalony poczuciem winy Tinny odchodzi z zespołu i rozpoczyna pracę w kopalni.

Screenshots:

[Oryginalny obrazek]
[Oryginalny obrazek]
[Oryginalny obrazek]
[Oryginalny obrazek]


General
Format                                   : Matroska
Format version                           : Version 2
File size                                : 3.97 GiB
Duration                                 : 1h 21mn
Overall bit rate                         : 7 023 Kbps
Movie name                               : Sky_Force_3D.Bluray3D Rip by Sonda [AT-Team]
Encoded date                             : UTC 2015-06-15 14:01:44
Writing application                      : mkvmerge v5.7.0 ('The Whirlwind') built on Jul  8 2012 20:08:51
Writing library                          : libebml v1.2.3 + libmatroska v1.3.0

Video
ID                                       : 1
Format                                   : AVC
Format/Info                              : Advanced Video Codec
Format profile                           : High@L4.1
Format settings, CABAC                   : Yes
Format settings, ReFrames                : 2 frames
Codec ID                                 : V_MPEG4/ISO/AVC
Duration                                 : 1h 21mn
Bit rate                                 : 6 243 Kbps
Width                                    : 1 920 pixels
Height                                   : 1 080 pixels
Display aspect ratio                     : 1.78:1
Frame rate mode                          : Constant
Frame rate                               : 23.976 fps
Color space                              : YUV
Chroma subsampling                       : 4:2:0
Bit depth                                : 8 bits
Scan type                                : Progressive
Bits/(Pixel*Frame)                       : 0.126
Stream size                              : 3.53 GiB (89%)
Title                                    : Rip by Sonda subbedPL
Writing library                          : x264 core
Default                                  : Yes
Forced                                   : No
Color primaries                          : BT.709
Transfer characteristics                 : BT.709
Matrix coefficients                      : BT.709

Audio
ID                                       : 2
Format                                   : AC-3
Format/Info                              : Audio Coding 3
Mode extension                           : CM (complete main)
Format settings, Endianness              : Big
Codec ID                                 : A_AC3
Duration                                 : 1h 21mn
Bit rate mode                            : Constant
Bit rate                                 : 640 Kbps
Channel(s)                               : 6 channels
Channel positions                        : Front: L C R, Side: L R, LFE
Sampling rate                            : 48.0 KHz
Bit depth                                : 16 bits
Compression mode                         : Lossy
Stream size                              : 371 MiB (9%)
Title                                    : AC3 5.1 ENG
Language                                 : English
Default                                  : Yes
Forced                                   : No

Menu
00:00:00.000                             : en:(01)00:00:00:000
00:05:00.000                             : en:(02)00:05:00:000
00:10:00.000                             : en:(03)00:10:00:000
00:15:00.000                             : en:(04)00:15:00:000
00:20:00.000                             : en:(05)00:20:00:000
00:25:00.000                             : en:(06)00:25:00:000
00:30:00.000                             : en:(07)00:30:00:000
00:35:00.000                             : en:(08)00:35:00:000
00:40:00.000                             : en:(09)00:40:00:000
00:45:00.000                             : en:(10)00:45:00:000
00:50:00.000                             : en:(11)00:50:00:000
00:55:00.000                             : en:(12)00:55:00:000
01:00:00.000                             : en:(13)01:00:00:000
01:05:00.000                             : en:(14)01:05:00:000
01:10:00.000                             : en:(15)01:10:00:000
01:15:00.000                             : en:(16)01:15:00:000
01:20:00.000                             : en:(17)01:20:00:000

Source:
A/V-BDRemux 2D/3D


.:: Sonda ::.


Dostępne napisy
Brak napisów
Szczegóły torrenta
Tracker http://tracker.aletorrenty.pl:2710/announce
Multitracker [ Pokaż ]
Kategoria: » » » [Zgłoś błąd]
Dodane 03-10-2017
Podziękowali:
0 użytkowników 
Podziękuj!
Pokaż / Ukryj pliki:
Nazwa pliku Rozmiar
info/Torrent downloaded from sonda torrents at aletorrenty.pl.txt 0.38 KB
info/Torrent downloaded from Sonda torrents at BTS.to.txt 0.11 KB
info/Torrent downloaded from Sonda torrents at AhaShare.com.txt 0.06 KB
info/Torrent downloaded from sonda torrents at h33t.to.txt 0.04 KB
info/Torrent downloaded from sonda000 torrents at demonoid.ph.txt 0.02 KB
Sky_Force_3D.2012.H-OU.miniHD.1080p.subbedPL(Sonda).mkv 3.97 GB
skyforce.jpg 206.21 KB
Upload by Sonda [AT-TEAM].jpg 45.62 KB
Read iNFO.txt 2.07 KB
Ale Torrenty Team enjoy !.url 0.11 KB
10 plików
Brak komentarzy...