Enable / Włącz Javascript
 Widok 
 Kategorie 
 Nitro Torrent w sieci 
 Top 10 użytkowników 
 Strażnik Księżyca-Mune, le gardien de la lune 3D (2015)[BRRip 1080p x264 by alE13 AC3DTS] [Napisy PL] [Fre]

Strażnik Księżyca-Mune, le gardien de la lune 3D (2015)[BRRip 1080p x264 by alE13 AC3DTS] [Napisy PL] [Fre]
Kategoria: » » »
Dodane: 03/10/2017
Rozmiar: 8.13 GB
Uploader: ferrisbuellerquotes.com❱ Wędrowiec
seed(ów): 0
leecher(ów): 0
Pobrane: 3
Komentarzy: 0
Pobierz Torrent Pobierz Torrent
Pobierz [Magnet] Pobierz [Magnet]

Obserwuj
Raportuj
F_INFO



http://www.filmweb.pl/film/Mune-2014-728928
http://www.imdb.com/title/tt3858372/

Film w wersji 3D Half-Over-Under.
No English subtitles.:(


reżyseria: Alexandre HeboyanBenoît Philippon
scenariusz: Jérôme Fansten, Benoît Philippon
gatunek: Animacja
produkcja: Francja
premiera: 06-12-2014
muzyka:         Bruno Coulais
czas:           1h 25mn

F_OPIS

When a faun named Mune becomes the Guardian of the Moon, little did he had unprepared experience with the Moon
and an accident that could put both the Moon and the Sun in danger, including a corrupt titan named Necross who
wants the Sun for himself and placing the balance of night and day in great peril. Now with the help of a wax-child
named Glim and the warrior, Sohone who also became the Sun Guardian, they go out on an exciting journey to get
the Sun back and restore the Moon to their rightful place in the sky.

Faun zostaje przypadkowo strażnikiem Księżyca. Jego niedoświadczenie ściąga niebezpieczeństwo na tego,
który ma chronić oraz Słońce.






F_OBSADA

Omar Sy, Izia Higelin, Michaël Grégorio (voice)

F_DANE

Mune, le gardien de la lune 3D (2015)-alE13.mkv
Format                      : Matroska
Format version              : Version 4 / Version 2
File size                   : 8.04 GiB
Duration                    : 1h 25mn
Overall bit rate            : 13.4 Mbps
Movie name                  : Mune, le gardien de la lune 3D (2015)-alE13
Encoded date                : UTC 2016-03-07 07:05:58
Writing application         : mkvmerge v8.1.0 ('Psychedelic Postcard') 64bit
Writing library             : libebml v1.3.1 + libmatroska v1.4.2

Video
ID                          : 1
Format                      : AVC
Format/Info                 : Advanced Video Codec
Format profile              : High@L4
Format settings, CABAC      : Yes
Format settings, ReFrames   : 2 frames
Format settings, GOP        : M=1, N=12
Codec ID                    : V_MPEG4/ISO/AVC
Duration                    : 1h 25mn
Bit rate mode               : Constant
Bit rate                    : 11.0 Mbps
Width                       : 1 920 pixels
Height                      : 1 080 pixels
Display aspect ratio        : 16:9
Frame rate mode             : Constant
Frame rate                  : 23.976 (24000/1001) fps
Color space                 : YUV
Chroma subsampling          : 4:2:0
Bit depth                   : 8 bits
Scan type                   : Progressive
Bits/(Pixel*Frame)          : 0.221
Stream size                 : 6.58 GiB (82%)
Title                       : Mune, le gardien de la lune 3D (2015)-alE13
Default                     : Yes
Forced                      : No

Audio #1
ID                          : 2
Format                      : AC-3
Format/Info                 : Audio Coding 3
Mode extension              : CM (complete main)
Format settings, Endianness : Big
Codec ID                    : A_AC3
Duration                    : 1h 25mn
Bit rate mode               : Constant
Bit rate                    : 640 Kbps
Channel(s)                  : 6 channels
Channel positions           : Front: L C R, Side: L R, LFE
Sampling rate               : 48.0 KHz
Frame rate                  : 31.250 fps (1536 spf)
Compression mode            : Lossy
Stream size                 : 393 MiB (5%)
Title                       : Mune, le gardien de la lune 3D (2015)-alE13_AC3
Language                    : French
Default                     : Yes
Forced                      : No

Audio #2
ID                          : 3
Format                      : DTS
Format/Info                 : Digital Theater Systems
Format profile              : MA / Core
Mode                        : 16
Format settings, Endianness : Big
Codec ID                    : A_DTS
Duration                    : 1h 25mn
Bit rate mode               : Variable / Constant
Bit rate                    : 1 795 Kbps / 1 152 Kbps
Channel(s)                  : 6 channels
Channel positions           : Front: L C R, Side: L R, LFE
Sampling rate               : 48.0 KHz
Frame rate                  : 93.750 fps (512 spf)
Bit depth                   : 16 bits
Compression mode            : Lossless / Lossy
Stream size                 : 1.08 GiB (13%)
Title                       : Mune, le gardien de la lune 3D (2015)-alE13_DTS
Language                    : French
Default                     : No
Forced                      : No

Text
ID                          : 4
Format                      : VobSub
Muxing mode                 : zlib
Codec ID                    : S_VOBSUB
Codec ID/Info               : Picture based subtitle format used on DVDs
Duration                    : 1h 19mn
Bit rate                    : 5 864 bps
Count of elements           : 617
Stream size                 : 3.34 MiB (0%)
Title                       : Mune, le gardien de la lune 3D (2015)-alE13
Language                    : Polish
Default                     : Yes
Forced                      : No



Dostępne napisy
Brak napisów
Szczegóły torrenta
Tracker http://tracker.aletorrenty.pl:2710/announce
Multitracker [ Pokaż ]
Kategoria: » » » [Zgłoś błąd]
Dodane 03-10-2017
Podziękowali:
0 użytkowników 
Podziękuj!
Pokaż / Ukryj pliki:
Nazwa pliku Rozmiar
info/Nostalgie.jpg 138.36 KB
info/Torrent downloadet from alE13 at filetracker.pl 0.21 KB
info/Torrent downloaded from alE13 torrents at BTScene.org.txt 0.12 KB
info/Torrent downloaded from alE13 torrents at dark-torrents.pl.txt 0.10 KB
info/Torrent downloaded from alE13 torrents at auratorrent.pl.txt 0.09 KB
info/Torrent downloaded from demonoid.pw.txt 0.04 KB
info/Torrent downloaded from - www.aletorrenty.pl 0.04 KB
subtitles/Mune, le gardien de la lune 3D (2015)-alE13.sub 6.84 MB
subtitles/Mune, le gardien de la lune 3D (2015)-alE13.xml 91.53 KB
subtitles/Mune, le gardien de la lune 3D (2015)-alE13.idx 28.15 KB
Mune, le gardien de la lune 3D (2015)-alE13.mkv 8.04 GB
sample.mkv 80.17 MB
TXT.jpg 112.69 KB
poster.jpg 62.25 KB
14 plików
Brak komentarzy...