Enable / Włącz Javascript
 Widok 
 Kategorie 
 Nitro Torrent w sieci 
 Top 10 użytkowników 
 The Adventures of Tintin 3D (2011) [1080p Bluray Half-SideBySide x264-XPRESS] [Napisy PL]

The Adventures of Tintin 3D (2011) [1080p Bluray Half-SideBySide x264-XPRESS] [Napisy PL]
Kategoria: » » »
Dodane: 03/10/2017
Rozmiar: 9.51 GB
Uploader: tomysparow559 (10)
seed(ów): 0
leecher(ów): 0
Pobrane: 1
Komentarzy: 0
Pobierz Torrent Pobierz Torrent
Pobierz [Magnet] Pobierz [Magnet]

Obserwuj
Raportuj
Tytuł: The Adventures of Tintin
Polski Tytuł: Przygody Tintina
Produkcja: Nowa Zelandia, USA
Gatunek: Animacja, Familijny, Przygodowy
Reżyseria: Steven Spielberg
Scenariusz: Joe Cornish, Edgar Wright
Data Premiery: 4 listopada 2011 (Polska) 22 października 2011 (Świat)
Ocena IMDB: 7.7/10 from 41,391 users

Opis:

Film zrealizowany na podstawie klasycznego komiksu belgijskiego pisarza - artysty Hergé, wydrukowanego w ponad 200 milionów egzemplarzy, tłumaczonego na 50 języków. Nic nie jest w stanie powstrzymać śmiałego reportera śledczego TINTINA, młodego bohatera ponadczasowego komiksu, przed rozwiązaniem tajemnic świata. W pierwszym z trzech planowanych filmów ten nieustraszony reporter, jego niesforny, ale oddany pies Snowy oraz skłonny do bijatyk kapitan Haddock wyruszają, aby odnaleźć od dawna zaginiony statek, który kryje tajemnicę starożytnego skarbu... i klucz do odwiecznej klątwy.

General
Unique ID : 252498602695870585050064053696406456906 (0xBDF57644A2A1CBAA960913B948038A4A)
Complete name : Z:paokgate4The Adventures of Tintin 3D 2011 1080p Bluray Half-SideBySide x264-XPRESS.mkv
Format : Matroska
Format version : Version 2
File size : 9.51 GiB
Duration : 1h 46mn
Overall bit rate : 12.7 Mbps
Movie name : ADVENTURES_OF_TINTIN.Title1.Bluray3DRip
Encoded date : UTC 2012-02-22 17:00:34
Writing application : mkvmerge v5.2.0 built on Dec 18 2011 18 :12:03
Writing library : libebml v1.2.3 + libmatroska v1.3.0

Video
ID : 1
Format : AVC
Format/Info : Advanced Video Codec
Format profile : High@L5.1
Format settings, CABAC : Yes
Format settings, ReFrames : 2 frames
Codec ID : V_MPEG4/ISO/AVC
Duration : 1h 46mn
Bit rate : 11.0 Mbps
Width : 1 920 pixels
Height : 1 080 pixels
Display aspect ratio : 16:9
Frame rate : 23.976 fps
Color space : YUV
Chroma subsampling : 4:2:0
Bit depth : 8 bits
Scan type : Progressive
Bits/(Pixel*Frame) : 0.221
Stream size : 8.19 GiB (86%)
Writing library : x264 core
Language : English
Color primaries : BT.709-5, BT.1361, IEC 61966-2-4, SMPTE RP177
Transfer characteristics : BT.709-5, BT.1361
Matrix coefficients : BT.709-5, BT.1361, IEC 61966-2-4 709, SMPTE RP177

Audio
ID : 2
Format : DTS
Format/Info : Digital Theater Systems
Codec ID : A_DTS
Duration : 1h 46mn
Bit rate mode : Constant
Bit rate : 1 510 Kbps
Channel(s) : 6 channels
Channel positions : Front: L C R, Side: L R, LFE
Sampling rate : 48.0 KHz
Bit depth : 16 bits
Compression mode : Lossy
Stream size : 1.13 GiB (12%)
Title : English DTS 1509kbps
Language : English

Dostępne napisy
Brak napisów
Szczegóły torrenta
Tracker http://tracker.torrenty.org:6969/announce
Multitracker [ Pokaż ]
Kategoria: » » » [Zgłoś błąd]
Dodane 03-10-2017
Podziękowali:
0 użytkowników 
Podziękuj!
Pokaż / Ukryj pliki:
Nazwa pliku Rozmiar
x-tintin-3dhsbs.mkv 9.51 GB
proof.jpg 142.99 KB
folder.jpg 117.24 KB
x-tintin-3dhsbs.txt 55.62 KB
x-tintin-3dhsbs.nfo 5.24 KB
5 plików
Brak komentarzy...